Descargar Mr Popper's Penguins HD 720p Subtitulado » Blog de Notas | Soy Facus

martes, 25 de octubre de 2011

Descargar Mr Popper's Penguins HD 720p Subtitulado

No soy de postear películas ni archivos de multimedia, salvo algunas excepciones. Pero creo que esta película vale la pena ;)

Acá va entonces...

Mr Popper's Penguins (Los pingüinos del Sr. Poper o también Los pingüinos de papá en español)



Título Original: Mr. Popper's Penguins
Año: 2011
País: Estados Unidos
Director: Mark S. Waters (AKA Mark Waters)
Guión: Sean Anders, John Morris, Jared Stern (Novela: Richard Atwater, Florence Atwater)
Fotografía: Florian Ballhaus
Productora: 20th Century Fox / Davis Entertainment
Género: Comedia | Cine familiar. Animación para adultos
Reparto: Jim Carrey, Carla Gugino, Madeline Carroll, Ophelia Lovibond, Angela Lansbury, Kelli Barrett, Philip Baker Hall, David Krumholtz, Jeffrey Tambor, Clark Gregg, James Tupper, Pepper Binkley, Maxwell Perry Cotton, Dylan Clark Marshall


Sinopsis

Mr. Popper vive en una tranquila y pequeña ciudad americana llamada Stillwater. Allí nunca pasa nada. Quizá por eso se ha convertido en un soñador y en un especialista en temas del Ártico y de la Antártida, incluso podría decir el nombre de todos sus exploradores y qué fueron a hacer a los polos. Un día conversa, gracias a un programa de radio, con el almirante Drake sobre su expedición a la Antártida, y éste le dice que pronto recibirá una sorpresa… Lo que nadie podía suponer es que el almirante iba a enviar una caja con ¡un pingüino de la mismísima Antártida! La vida de nuestro protagonista cambiará radicalmente, y la aburrida vida en Stillwater se transformará en una fantástica y permanente aventura llena de pingüinos.


Trailer




Tras el salto, la ficha técnica y los links de descarga.
salto


Ficha Técnica

Complete name : Mr.Poppers.Penguins.2011.BDRip.XviD.by.Facus.avi
Format : AVI
Format/Info : Audio Video Interleave
Format profile : OpenDML
Format settings : rec
File size : 698 MiB
Duration : 1h 34mn
Overall bit rate : 1 034 Kbps

Video
ID : 0
Format : MPEG-4 Visual
Format profile : Advanced Simple@L5
Format settings, BVOP : 2
Format settings, QPel : No
Format settings, GMC : No warppoints
Format settings, Matrix : Default (H.263)
Codec ID : XVID
Codec ID/Hint : XviD
Duration : 1h 34mn
Bit rate : 894 Kbps
Width : 640 pixels
Height : 352 pixels
Display aspect ratio : 16:9
Frame rate : 23.976 fps
Color space : YUV
Chroma subsampling : 4:2:0
Bit depth : 8 bits
Scan type : Progressive
Compression mode : Lossy
Bits/(Pixel*Frame) : 0.165
Stream size : 603 MiB (86%)
Writing library : XviD 1.2.1 (UTC 2008-12-04)

Audio
ID : 1
Format : MPEG Audio
Format version : Version 1
Format profile : Layer 3
Mode : Joint stereo
Mode extension : MS Stereo
Codec ID : 55
Codec ID/Hint : MP3
Duration : 1h 34mn
Bit rate mode : Variable
Bit rate : 131 Kbps
Channel(s) : 2 channels
Sampling rate : 48.0 KHz
Compression mode : Lossy
Stream size : 88.6 MiB (13%)
Alignment : Aligned on interleaves
Interleave, duration : 24 ms (0.58 video frame)
Interleave, preload duration : 64 ms
Writing library : LAME3.90.
Encoding settings : -m j -V 4 -q 2 -lowpass 17.6 --abr 131

Subtítulos
Subtítulos en Español
Formato: SRT
Incluidos en el archivo contenedor.

Capturas



Descarga

_____
Freakshare
_____
Uploading
Parte 1 Parte 1
Parte 2 Parte 2
Parte 3 Parte 3

Nota: Los links no tienen password de ningún tipo. Siéntanse libres de compartir y/o publicarlos en donde quieran, pero citen la fuente: www.soyfacus.com.ar




SoyFacus | y quiero ESOS pingüinos.

<---- Compartilo desde la barra social. (Facebook, Twitter y/o Google Plus)

0 comentarios:

Publicar un comentario en la entrada

Dale, dejame saber que opinás..

Ingresar un Nick en "Nombre/URL" o logueate en Google, OpenID, AIM, TypePad, WordPress o LiveJournal.